Colección Películas Destino Final Full 1080p HD Español Latino – Ingles

Colección Películas Destino Final Full 1080p HD Español Latino – Ingles

Jul. 18, 2018
Tu voto: 0
0 0 votos

Video trailer

Director

Director

Reparto

Sinopsis

Destino Final (2000)

Un joven estudiante tiene una premonición al subirse al avión en el que se dispone a ir a París con sus compañeros. Presintiendo que algo grave va a pasar, él y sus amigos desembarcan antes del despegue. Efectivamente, el avión sufre un trágico accidente, y los jóvenes piensan que se han librado de una muerte segura gracias a la premonición de su amigo. Pero a la muerte no le gusta que le engañen…


[su_spoiler title=”Click para Mostrar Capturas” style=”fancy” icon=”caret”]

[/su_spoiler]


Final Destination (2000)
BRRip 1080p MKV | Resolución: 1920×1080p | Codec: H.264 | Tamaño: 5.4 GB
Idiomas: Latino AC3 2.0 BD – Ingles AC3 5.1 BD
Subtitulos: Latino – Ingles | Terror | 5% Recuperación

[su_spoiler title=”Datos MediaInfo” style=”fancy” icon=”caret”]

General
Complete name : Final Destination (2000) Dual Full 1080p HD.mkv
Format : Matroska
Format version : Version 4 / Version 2
File size : 5.45 GiB
Duration : 1 h 38 min
Overall bit rate : 7 966 kb/s
Movie name : Final Destination (2000) Dual Full 1080p HD
Encoded date : UTC 2017-11-12 03:34:31 / UTC 2017-11-09T21:45:33Z
Writing application : mkvmerge v15.0.0 (‘Duel with the Devil’) 64-bit
Writing library : libebml v1.3.5 + libmatroska v1.4.5 / Lavf57.7.2

Video
ID : 1
Format : AVC
Format/Info : Advanced Video Codec
Format profile : High@L4.1
Format settings, CABAC : Yes
Format settings, RefFrames : 4 frames
Codec ID : V_MPEG4/ISO/AVC
Duration : 1 h 38 min
Bit rate : 6 911 kb/s
Width : 1 920 pixels
Height : 1 080 pixels
Display aspect ratio : 16:9
Frame rate mode : Constant
Frame rate : 23.976 (24000/1001) FPS
Color space : YUV
Chroma subsampling : 4:2:0
Bit depth : 8 bits
Scan type : Progressive
Bits/(Pixel*Frame) : 0.139
Stream size : 4.73 GiB (87%)
Title : Final Destination (2000) Dual Full 1080p HD
Writing library : x264 core 148 r2708 86b7198
Encoding settings : cabac=1 / ref=4 / deblock=1:0:0 / analyse=0x3:0x133 / me=esa / subme=10 / psy=1 / psy_rd=1.00:0.00 / mixed_ref=1 / me_range=24 / chroma_me=1 / trellis=2 / 8x8dct=1 / cqm=0 / deadzone=21,11 / fast_pskip=1 / chroma_qp_offset=-2 / threads=34 / lookahead_threads=5 / sliced_threads=0 / nr=0 / decimate=1 / interlaced=0 / bluray_compat=0 / constrained_intra=0 / bframes=8 / b_pyramid=2 / b_adapt=2 / b_bias=0 / direct=3 / weightb=1 / open_gop=0 / weightp=2 / keyint=240 / keyint_min=24 / scenecut=40 / intra_refresh=0 / rc_lookahead=60 / rc=crf / mbtree=1 / crf=20.0 / qcomp=0.60 / qpmin=0 / qpmax=69 / qpstep=4 / vbv_maxrate=62500 / vbv_bufsize=78125 / crf_max=0.0 / nal_hrd=none / filler=0 / ip_ratio=1.40 / aq=1:1.00
Language : English
Default : Yes
Forced : No
Color range : Limited
Color primaries : BT.709
Transfer characteristics : BT.709
Matrix coefficients : BT.709
Statistics Tags Issue : mkvmerge v15.0.0 (‘Duel with the Devil’) 64-bit 2017-11-12 03:34:31 / mkvmerge v15.0.0 (‘Duel with the Devil’) 64-bit 2017-11-12 03:34:31 / UTC 2017-11-09T21:45:33Z
FromStats_BitRate : 7045325
FromStats_Duration : 01:38:01.960000000
FromStats_FrameCount : 141026
FromStats_StreamSize : 5180040284

Audio #1
ID : 2
Format : AC-3
Format/Info : Audio Coding 3
Format settings, Endianness : Big
Codec ID : A_AC3
Duration : 1 h 38 min
Bit rate mode : Constant
Bit rate : 256 kb/s
Channel(s) : 2 channels
Channel positions : Front: L R
Sampling rate : 48.0 kHz
Frame rate : 31.250 FPS (1536 SPF)
Bit depth : 16 bits
Compression mode : Lossy
Stream size : 180 MiB (3%)
Title : Latino
Language : Spanish
Service kind : Complete Main
Default : Yes
Forced : No
Statistics Tags Issue : mkvmerge v15.0.0 (‘Duel with the Devil’) 64-bit 2017-11-12 03:34:31 / mkvmerge v15.0.0 (‘Duel with the Devil’) 64-bit 2017-11-12 03:34:31 / UTC 2017-11-09T21:45:33Z
FromStats_BitRate : 256000
FromStats_Duration : 01:38:02.016000000
FromStats_FrameCount : 183813
FromStats_StreamSize : 188224512

Audio #2
ID : 3
Format : AC-3
Format/Info : Audio Coding 3
Format settings, Endianness : Big
Codec ID : A_AC3
Duration : 1 h 38 min
Bit rate mode : Constant
Bit rate : 640 kb/s
Channel(s) : 6 channels
Channel positions : Front: L C R, Side: L R, LFE
Sampling rate : 48.0 kHz
Frame rate : 31.250 FPS (1536 SPF)
Bit depth : 16 bits
Compression mode : Lossy
Stream size : 449 MiB (8%)
Title : Ingles
Language : English
Service kind : Complete Main
Default : No
Forced : No
Statistics Tags Issue : mkvmerge v15.0.0 (‘Duel with the Devil’) 64-bit 2017-11-12 03:34:31 / mkvmerge v15.0.0 (‘Duel with the Devil’) 64-bit 2017-11-12 03:34:31 / UTC 2017-11-09T21:45:33Z
FromStats_BitRate : 640000
FromStats_Duration : 01:38:02.016000000
FromStats_FrameCount : 183813
FromStats_StreamSize : 470561280

Text #1
ID : 4
Format : PGS
Muxing mode : zlib
Codec ID : S_HDMV/PGS
Codec ID/Info : Picture based subtitle format used on BDs/HD-DVDs
Title : Latino
Language : Spanish
Default : No
Forced : No
Statistics Tags Issue : mkvmerge v15.0.0 (‘Duel with the Devil’) 64-bit 2017-11-12 03:34:31 / mkvmerge v15.0.0 (‘Duel with the Devil’) 64-bit 2017-11-12 03:34:31 / UTC 2017-11-09T21:45:33Z
FromStats_BitRate : 23837
FromStats_Duration : 01:31:45.750000000
FromStats_FrameCount : 1691
FromStats_StreamSize : 16405235

Text #2
ID : 5
Format : PGS
Muxing mode : zlib
Codec ID : S_HDMV/PGS
Codec ID/Info : Picture based subtitle format used on BDs/HD-DVDs
Title : Ingles
Language : English
Default : No
Forced : No
Statistics Tags Issue : mkvmerge v15.0.0 (‘Duel with the Devil’) 64-bit 2017-11-12 03:34:31 / mkvmerge v15.0.0 (‘Duel with the Devil’) 64-bit 2017-11-12 03:34:31 / UTC 2017-11-09T21:45:33Z
FromStats_BitRate : 30479
FromStats_Duration : 01:29:17.644000000
FromStats_FrameCount : 1912
FromStats_StreamSize : 20412604

Menu
00:00:00.000 : :Main Titles
00:03:03.016 : :Flight 180
00:09:49.964 : :Departure
00:15:43.818 : :Early Exit
00:19:43.224 : :”I Didn’t Cause This.”
00:26:55.280 : :Memorial
00:31:44.694 : :Tod
00:38:54.249 : :A Visit with Clear
00:42:02.687 : :Death’s Design
00:46:00.091 : :Signs
00:49:31.051 : :Path of Destruction
00:51:41.056 : :Miss Lewton
01:02:08.975 : :Looking for Alex
01:06:44.501 : :”Who’s Next?”
01:14:23.084 : :Safe House
01:17:40.364 : :Alex’s Revelation
01:20:19.231 : :Race Against Death
01:27:46.595 : :6 Months Later
01:32:24.539 : :End Credits

[/su_spoiler]


| 1fichier | UptoboxDownace | Mega |

Password/Contraseña: peliculasmegahdd.com

Links Intercambiables



Destino Final 2 (2003)

Mientras se prepara para salir de fin de semana con sus amigos, Kimberly Corman tiene una repentina visión de un terrible accidente de carretera donde presencia la muerte de multitud de personas, incluida ella misma. Todo parece tan real que la chica decide bloquear el acceso a la autopista. Ella y todos a los que ha conseguido detener asisten, impotentes, a la espectacular catástrofe que tiene lugar ante sus ojos. Todos ellos han escapado de la muerte por muy poco. Kimberly sabe, sin embargo, que no esquivará al destino tan fácilmente. Así que acude a pedir ayuda a la única persona que ha vivido su misma situación: Clear Rivers, la única superviviente del vuelo 180. Junto con el resto de supervivientes, las dos chicas se lanzarán entonces a una carrera contrarreloj intentar engañar a la Muerte.


[su_spoiler title=”Click para Mostrar Capturas” style=”fancy” icon=”caret”][/su_spoiler]


Final Destination 2 (2003)
BRRip 1080p MKV | Resolución: 1920×1080p | Codec: H.264 | Tamaño: 5.3 GB
Idiomas: Latino AC3 5.1 BD – Ingles AC3 5.1 BD
Subtitulos: Latino – Ingles | Terror | 5% Recuperación

[su_spoiler title=”Datos MediaInfo” style=”fancy” icon=”caret”]

General
Complete name : Final Destination 2 (2003) Dual Full 1080p HD.mkv
Format : Matroska
Format version : Version 4 / Version 2
File size : 5.39 GiB
Duration : 1 h 30 min
Overall bit rate : 8 550 kb/s
Movie name : Final Destination 2 (2003) Dual Full 1080p HD
Encoded date : UTC 2017-11-12 03:35:28 / UTC 2017-11-10T00:55:34Z
Writing application : mkvmerge v15.0.0 (‘Duel with the Devil’) 64-bit
Writing library : libebml v1.3.5 + libmatroska v1.4.5 / Lavf57.7.2

Video
ID : 1
Format : AVC
Format/Info : Advanced Video Codec
Format profile : High@L4.1
Format settings, CABAC : Yes
Format settings, RefFrames : 4 frames
Codec ID : V_MPEG4/ISO/AVC
Duration : 1 h 30 min
Bit rate : 7 100 kb/s
Width : 1 920 pixels
Height : 1 080 pixels
Display aspect ratio : 16:9
Frame rate mode : Constant
Frame rate : 23.976 (24000/1001) FPS
Color space : YUV
Chroma subsampling : 4:2:0
Bit depth : 8 bits
Scan type : Progressive
Bits/(Pixel*Frame) : 0.143
Stream size : 4.47 GiB (83%)
Title : Final Destination 2 (2003) Dual Full 1080p HD
Writing library : x264 core 148 r2708 86b7198
Encoding settings : cabac=1 / ref=4 / deblock=1:0:0 / analyse=0x3:0x133 / me=esa / subme=10 / psy=1 / psy_rd=1.00:0.00 / mixed_ref=1 / me_range=24 / chroma_me=1 / trellis=2 / 8x8dct=1 / cqm=0 / deadzone=21,11 / fast_pskip=1 / chroma_qp_offset=-2 / threads=34 / lookahead_threads=5 / sliced_threads=0 / nr=0 / decimate=1 / interlaced=0 / bluray_compat=0 / constrained_intra=0 / bframes=8 / b_pyramid=2 / b_adapt=2 / b_bias=0 / direct=3 / weightb=1 / open_gop=0 / weightp=2 / keyint=240 / keyint_min=24 / scenecut=40 / intra_refresh=0 / rc_lookahead=60 / rc=crf / mbtree=1 / crf=20.0 / qcomp=0.60 / qpmin=0 / qpmax=69 / qpstep=4 / vbv_maxrate=62500 / vbv_bufsize=78125 / crf_max=0.0 / nal_hrd=none / filler=0 / ip_ratio=1.40 / aq=1:1.00
Language : English
Default : Yes
Forced : No
Color range : Limited
Color primaries : BT.709
Transfer characteristics : BT.709
Matrix coefficients : BT.709
Statistics Tags Issue : mkvmerge v15.0.0 (‘Duel with the Devil’) 64-bit 2017-11-12 03:35:28 / mkvmerge v15.0.0 (‘Duel with the Devil’) 64-bit 2017-11-12 03:35:28 / UTC 2017-11-10T00:55:34Z
FromStats_BitRate : 7267759
FromStats_Duration : 01:30:11.198000000
FromStats_FrameCount : 129739
FromStats_StreamSize : 4915910785

Audio #1
ID : 2
Format : AC-3
Format/Info : Audio Coding 3
Format settings, Endianness : Big
Codec ID : A_AC3
Duration : 1 h 30 min
Bit rate mode : Constant
Bit rate : 640 kb/s
Channel(s) : 6 channels
Channel positions : Front: L C R, Side: L R, LFE
Sampling rate : 48.0 kHz
Frame rate : 31.250 FPS (1536 SPF)
Bit depth : 16 bits
Compression mode : Lossy
Delay relative to video : 1 s 250 ms
Stream size : 413 MiB (7%)
Title : Latino
Language : Spanish
Service kind : Complete Main
Default : Yes
Forced : No
Statistics Tags Issue : mkvmerge v15.0.0 (‘Duel with the Devil’) 64-bit 2017-11-12 03:35:28 / mkvmerge v15.0.0 (‘Duel with the Devil’) 64-bit 2017-11-12 03:35:28 / UTC 2017-11-10T00:55:34Z
FromStats_BitRate : 640000
FromStats_Duration : 01:30:09.728000000
FromStats_FrameCount : 169054
FromStats_StreamSize : 432778240

Audio #2
ID : 3
Format : AC-3
Format/Info : Audio Coding 3
Format settings, Endianness : Big
Codec ID : A_AC3
Duration : 1 h 30 min
Bit rate mode : Constant
Bit rate : 640 kb/s
Channel(s) : 6 channels
Channel positions : Front: L C R, Side: L R, LFE
Sampling rate : 48.0 kHz
Frame rate : 31.250 FPS (1536 SPF)
Bit depth : 16 bits
Compression mode : Lossy
Stream size : 413 MiB (7%)
Title : Ingles
Language : English
Service kind : Complete Main
Default : No
Forced : No
Statistics Tags Issue : mkvmerge v15.0.0 (‘Duel with the Devil’) 64-bit 2017-11-12 03:35:28 / mkvmerge v15.0.0 (‘Duel with the Devil’) 64-bit 2017-11-12 03:35:28 / UTC 2017-11-10T00:55:34Z
FromStats_BitRate : 640000
FromStats_Duration : 01:30:11.200000000
FromStats_FrameCount : 169100
FromStats_StreamSize : 432896000

Text
ID : 4
Format : UTF-8
Codec ID : S_TEXT/UTF8
Codec ID/Info : UTF-8 Plain Text
Title : Latino
Language : Spanish
Default : No
Forced : No
Statistics Tags Issue : mkvmerge v15.0.0 (‘Duel with the Devil’) 64-bit 2017-11-12 03:35:28 / mkvmerge v15.0.0 (‘Duel with the Devil’) 64-bit 2017-11-12 03:35:28 / UTC 2017-11-10T00:55:34Z
FromStats_BitRate : 52
FromStats_Duration : 01:29:35.327000000
FromStats_FrameCount : 938
FromStats_StreamSize : 35084

Menu
00:00:00.000 : :Main Titles / Death’s Design
00:04:48.330 : :Deadly Commute
00:16:39.415 : :The Lucky Ones
00:20:59.175 : :Household Hazards
00:29:51.790 : :The Sole Survivor
00:38:47.033 : :A Trip To The Dentist
00:44:52.815 : :Expert Advice
00:50:56.595 : :Route 23 Reunion
00:56:17.082 : :Man With Hooks
01:00:47.894 : :Loose Ends
01:08:14.716 : :Scene Of The Accident
01:12:55.037 : :Code Blue
01:19:09.954 : :Recognizing The Signs
01:22:52.468 : :New Life / Epilogue
01:25:17.529 : :End Credits

[/su_spoiler]


| 1fichier | UptoboxDownace | Mega |

Password/Contraseña: peliculasmegahdd.com

Links Intercambiables



Destino Final 3 (2006)

Un grupo de jóvenes decide pasar una tarde en un parque de atracciones. Wendy (Mary Elizabeth Winstead) tiene la premonición de un terrible accidente en la montaña rusa y advierte a sus amigos. Solo unos pocos, entre ellos Kevin (Ryan Merriman), le hacen caso y se salvan de la tragedia. Pero la muerte pronto les irá cazando uno a uno.


[su_spoiler title=”Click para Mostrar Capturas” style=”fancy” icon=”caret”][/su_spoiler]


Final Destination 3 (2006)
BRRip 1080p MKV | Resolución: 1920×1080p | Codec: H.264 | Tamaño: 5.1 GB
Idiomas: Latino AC3 2.0 BD – Ingles AC3 5.1 BD
Subtitulos: Latino – Ingles | Terror | 5% Recuperación

[su_spoiler title=”Datos MediaInfo” style=”fancy” icon=”caret”]

General
Complete name : Final Destination 3 (2006) Dual Full 1080p HD.mkv
Format : Matroska
Format version : Version 4 / Version 2
File size : 5.12 GiB
Duration : 1 h 32 min
Overall bit rate : 7 891 kb/s
Movie name : Final Destination 3 (2006) Dual Full 1080p HD
Encoded date : UTC 2017-11-16 01:07:42 / UTC 2017-11-10T03:59:58Z
Writing application : mkvmerge v15.0.0 (‘Duel with the Devil’) 64-bit
Writing library : libebml v1.3.5 + libmatroska v1.4.5 / Lavf57.7.2

Video
ID : 1
Format : AVC
Format/Info : Advanced Video Codec
Format profile : High@L4.1
Format settings, CABAC : Yes
Format settings, RefFrames : 4 frames
Codec ID : V_MPEG4/ISO/AVC
Duration : 1 h 32 min
Bit rate : 6 838 kb/s
Width : 1 920 pixels
Height : 1 080 pixels
Display aspect ratio : 16:9
Frame rate mode : Constant
Frame rate : 23.976 (24000/1001) FPS
Color space : YUV
Chroma subsampling : 4:2:0
Bit depth : 8 bits
Scan type : Progressive
Bits/(Pixel*Frame) : 0.138
Stream size : 4.43 GiB (87%)
Title : Final Destination 3 (2006) Dual Full 1080p HD
Writing library : x264 core 148 r2708 86b7198
Encoding settings : cabac=1 / ref=4 / deblock=1:0:0 / analyse=0x3:0x133 / me=esa / subme=10 / psy=1 / psy_rd=1.00:0.00 / mixed_ref=1 / me_range=24 / chroma_me=1 / trellis=2 / 8x8dct=1 / cqm=0 / deadzone=21,11 / fast_pskip=1 / chroma_qp_offset=-2 / threads=34 / lookahead_threads=5 / sliced_threads=0 / nr=0 / decimate=1 / interlaced=0 / bluray_compat=0 / constrained_intra=0 / bframes=8 / b_pyramid=2 / b_adapt=2 / b_bias=0 / direct=3 / weightb=1 / open_gop=0 / weightp=2 / keyint=240 / keyint_min=24 / scenecut=40 / intra_refresh=0 / rc_lookahead=60 / rc=crf / mbtree=1 / crf=20.0 / qcomp=0.60 / qpmin=0 / qpmax=69 / qpstep=4 / vbv_maxrate=62500 / vbv_bufsize=78125 / crf_max=0.0 / nal_hrd=none / filler=0 / ip_ratio=1.40 / aq=1:1.00
Language : English
Default : Yes
Forced : No
Color range : Limited
Color primaries : BT.709
Transfer characteristics : BT.709
Matrix coefficients : BT.709
Statistics Tags Issue : mkvmerge v15.0.0 (‘Duel with the Devil’) 64-bit 2017-11-16 01:07:42 / mkvmerge v15.0.0 (‘Duel with the Devil’) 64-bit 2017-11-16 01:07:42 / UTC 2017-11-10T03:59:58Z
FromStats_BitRate : 6992848
FromStats_Duration : 01:32:50.690000000
FromStats_FrameCount : 133563
FromStats_StreamSize : 4869374225

Audio #1
ID : 2
Format : AC-3
Format/Info : Audio Coding 3
Format settings, Endianness : Big
Codec ID : A_AC3
Duration : 1 h 32 min
Bit rate mode : Constant
Bit rate : 256 kb/s
Channel(s) : 2 channels
Channel positions : Front: L R
Sampling rate : 48.0 kHz
Frame rate : 31.250 FPS (1536 SPF)
Bit depth : 16 bits
Compression mode : Lossy
Delay relative to video : 1 s 450 ms
Stream size : 170 MiB (3%)
Title : Latino
Language : Spanish
Service kind : Complete Main
Default : Yes
Forced : No
Statistics Tags Issue : mkvmerge v15.0.0 (‘Duel with the Devil’) 64-bit 2017-11-16 01:07:42 / mkvmerge v15.0.0 (‘Duel with the Devil’) 64-bit 2017-11-16 01:07:42 / UTC 2017-11-10T03:59:58Z
FromStats_BitRate : 256000
FromStats_Duration : 01:32:49.120000000
FromStats_FrameCount : 174035
FromStats_StreamSize : 178211840

Audio #2
ID : 3
Format : AC-3
Format/Info : Audio Coding 3
Format settings, Endianness : Big
Codec ID : A_AC3
Duration : 1 h 32 min
Bit rate mode : Constant
Bit rate : 640 kb/s
Channel(s) : 6 channels
Channel positions : Front: L C R, Side: L R, LFE
Sampling rate : 48.0 kHz
Frame rate : 31.250 FPS (1536 SPF)
Bit depth : 16 bits
Compression mode : Lossy
Stream size : 425 MiB (8%)
Title : Ingles
Language : English
Service kind : Complete Main
Default : No
Forced : No
Statistics Tags Issue : mkvmerge v15.0.0 (‘Duel with the Devil’) 64-bit 2017-11-16 01:07:42 / mkvmerge v15.0.0 (‘Duel with the Devil’) 64-bit 2017-11-16 01:07:42 / UTC 2017-11-10T03:59:58Z
FromStats_BitRate : 640000
FromStats_Duration : 01:32:50.720000000
FromStats_FrameCount : 174085
FromStats_StreamSize : 445657600

Text
ID : 4
Format : UTF-8
Codec ID : S_TEXT/UTF8
Codec ID/Info : UTF-8 Plain Text
Title : Latino
Language : Spanish
Default : Yes
Forced : No
Statistics Tags Issue : mkvmerge v15.0.0 (‘Duel with the Devil’) 64-bit 2017-11-16 01:07:42 / mkvmerge v15.0.0 (‘Duel with the Devil’) 64-bit 2017-11-16 01:07:42 / UTC 2017-11-10T03:59:58Z
FromStats_BitRate : 47
FromStats_Duration : 01:26:16.545000000
FromStats_FrameCount : 957
FromStats_StreamSize : 30429

Menu
00:00:00.000 : :Do You Believe In Fortunes?
00:02:35.572 : :High Die
00:04:02.951 : :Take A Shot Of This
00:09:22.687 : :Meet You At The End
00:14:33.748 : :The Vision
00:21:27.369 : :It’s Happened Before
00:26:22.498 : :Beds Are Burning
00:38:11.164 : :Take A Dirt Nap
00:44:43.764 : :Turn Around, Look At Me
00:49:45.983 : :The Clues
00:52:33.776 : :Just Win, Baby
00:55:42.339 : :Death Renovates
01:03:51.453 : :A Utilitarian Choice
01:06:13.219 : :Who’s Next
01:11:17.023 : :Liberty Or Death?
01:17:54.336 : :McKinley’s Fireworks
01:19:58.002 : :End Of The Line
01:27:08.849 : :End Credits

[/su_spoiler]


| 1fichier | UptoboxDownace | Mega |

Password/Contraseña: peliculasmegahdd.com

Links Intercambiables



Destino Final 4 (2009)

En el que debería haber sido un divertido día en las carreras, Nick O’Bannon (Bobby Campo) tiene una horrible premonición en la que una extraña secuencia de acontecimientos provoca múltiples accidentes de automóviles en la carrera, enviando escombros llenos de llamas a las gradas, matando brutalmente a sus amigos y haciendo que la parte superior de las gradas se derrumbe sobre él. Cuando sale de esta pesadilla, Nick entra en pánico e intenta persuadir a su novia, Lori (Shantel VanSanten) y a sus amigos, Janet (Haley Webb) y Hunt (Nick Zano), de que tienen que irse rápido… y escapan segundos antes de que la aterradora visión de Nick se convierta en una terrible realidad.Pensando en que han logrado engañar a la muerte, el grupo tiene una nueva oportunidad de vivir, pero lamentablemente para Nick y para Lori, ese es sólo el comienzo. Continúan sus premoniciones y los supervivientes del accidente comienzan a morir uno a uno, de maneras cada vez más pavorosas. Nick debe encontrar una manera de escapar de la muerte de una vez por todas antes de que él, también, alcance su Destino final.


[su_spoiler title=”Click para Mostrar Capturas” style=”fancy” icon=”caret”][/su_spoiler]


The Final Destination (2009)
BRRip 1080p MKV | Resolución: 1920×1080p | Codec: H.264 | Tamaño: 4.9 GB
Idiomas: Latino AC3 5.1 BD – Ingles AC3 5.1 BD
Subtitulos: Latino – Forzados – Ingles | Terror | 5% Recuperación

[su_spoiler title=”Datos MediaInfo” style=”fancy” icon=”caret”]

General
Complete name : Final Destination 4 (2009) Dual Full 1080p HD.mkv
Format : Matroska
Format version : Version 4 / Version 2
File size : 4.96 GiB
Duration : 1 h 21 min
Overall bit rate : 8 671 kb/s
Movie name : Final Destination 4 (2009) Dual Full 1080p HD
Encoded date : UTC 2017-11-16 01:03:57 / UTC 2017-11-12T02:13:04Z
Writing application : mkvmerge v15.0.0 (‘Duel with the Devil’) 64-bit
Writing library : libebml v1.3.5 + libmatroska v1.4.5 / Lavf57.7.2

Video
ID : 1
Format : AVC
Format/Info : Advanced Video Codec
Format profile : High@L4.1
Format settings, CABAC : Yes
Format settings, RefFrames : 4 frames
Codec ID : V_MPEG4/ISO/AVC
Duration : 1 h 21 min
Bit rate : 6 350 kb/s
Width : 1 920 pixels
Height : 1 080 pixels
Display aspect ratio : 16:9
Frame rate mode : Constant
Frame rate : 23.976 (24000/1001) FPS
Color space : YUV
Chroma subsampling : 4:2:0
Bit depth : 8 bits
Scan type : Progressive
Bits/(Pixel*Frame) : 0.128
Stream size : 3.63 GiB (73%)
Title : Final Destination 4 (2009) Dual Full 1080p HD
Writing library : x264 core 148 r2708 86b7198
Encoding settings : cabac=1 / ref=4 / deblock=1:0:0 / analyse=0x3:0x133 / me=esa / subme=10 / psy=1 / psy_rd=1.00:0.00 / mixed_ref=1 / me_range=24 / chroma_me=1 / trellis=2 / 8x8dct=1 / cqm=0 / deadzone=21,11 / fast_pskip=1 / chroma_qp_offset=-2 / threads=34 / lookahead_threads=5 / sliced_threads=0 / nr=0 / decimate=1 / interlaced=0 / bluray_compat=0 / constrained_intra=0 / bframes=8 / b_pyramid=2 / b_adapt=2 / b_bias=0 / direct=3 / weightb=1 / open_gop=0 / weightp=2 / keyint=240 / keyint_min=24 / scenecut=40 / intra_refresh=0 / rc_lookahead=60 / rc=crf / mbtree=1 / crf=20.0 / qcomp=0.60 / qpmin=0 / qpmax=69 / qpstep=4 / vbv_maxrate=62500 / vbv_bufsize=78125 / crf_max=0.0 / nal_hrd=none / filler=0 / ip_ratio=1.40 / aq=1:1.00
Language : English
Default : Yes
Forced : No
Color range : Limited
Color primaries : BT.709
Transfer characteristics : BT.709
Matrix coefficients : BT.709
Statistics Tags Issue : mkvmerge v15.0.0 (‘Duel with the Devil’) 64-bit 2017-11-16 01:03:57 / mkvmerge v15.0.0 (‘Duel with the Devil’) 64-bit 2017-11-16 01:03:57 / UTC 2017-11-12T02:13:04Z
FromStats_BitRate : 6512719
FromStats_Duration : 01:21:46.986000000
FromStats_FrameCount : 117650
FromStats_StreamSize : 3994727887

Audio #1
ID : 2
Format : AC-3
Format/Info : Audio Coding 3
Format settings, Endianness : Big
Codec ID : A_AC3
Duration : 1 h 21 min
Bit rate mode : Constant
Bit rate : 640 kb/s
Channel(s) : 6 channels
Channel positions : Front: L C R, Side: L R, LFE
Sampling rate : 48.0 kHz
Frame rate : 31.250 FPS (1536 SPF)
Bit depth : 16 bits
Compression mode : Lossy
Stream size : 375 MiB (7%)
Title : Latino
Language : Spanish
Service kind : Complete Main
Default : Yes
Forced : No
Statistics Tags Issue : mkvmerge v15.0.0 (‘Duel with the Devil’) 64-bit 2017-11-16 01:03:57 / mkvmerge v15.0.0 (‘Duel with the Devil’) 64-bit 2017-11-16 01:03:57 / UTC 2017-11-12T02:13:04Z
FromStats_BitRate : 640000
FromStats_Duration : 01:21:49.920000000
FromStats_FrameCount : 153435
FromStats_StreamSize : 392793600

Audio #2
ID : 3
Format : DTS
Format/Info : Digital Theater Systems
Mode : 16
Format settings, Endianness : Big
Codec ID : A_DTS
Duration : 1 h 21 min
Bit rate mode : Constant
Bit rate : 1 509 kb/s
Channel(s) : 6 channels
Channel positions : Front: L C R, Side: L R, LFE
Sampling rate : 48.0 kHz
Frame rate : 93.750 FPS (512 SPF)
Bit depth : 24 bits
Compression mode : Lossy
Stream size : 883 MiB (17%)
Title : Ingles
Language : English
Default : No
Forced : No
Statistics Tags Issue : mkvmerge v15.0.0 (‘Duel with the Devil’) 64-bit 2017-11-16 01:03:57 / mkvmerge v15.0.0 (‘Duel with the Devil’) 64-bit 2017-11-16 01:03:57 / UTC 2017-11-12T02:13:04Z
FromStats_BitRate : 1508999
FromStats_Duration : 01:21:49.931000000
FromStats_FrameCount : 460306
FromStats_StreamSize : 926135672

Text #1
ID : 4
Format : PGS
Muxing mode : zlib
Codec ID : S_HDMV/PGS
Codec ID/Info : Picture based subtitle format used on BDs/HD-DVDs
Title : PGS-Forzados
Language : Spanish
Default : Yes
Forced : No
Statistics Tags Issue : mkvmerge v15.0.0 (‘Duel with the Devil’) 64-bit 2017-11-16 01:03:57 / mkvmerge v15.0.0 (‘Duel with the Devil’) 64-bit 2017-11-16 01:03:57 / UTC 2017-11-12T02:13:04Z
FromStats_BitRate : 1031
FromStats_Duration : 01:21:04.985000000
FromStats_FrameCount : 78
FromStats_StreamSize : 627323

Text #2
ID : 5
Format : PGS
Muxing mode : zlib
Codec ID : S_HDMV/PGS
Codec ID/Info : Picture based subtitle format used on BDs/HD-DVDs
Title : PGS Latino
Language : Spanish
Default : No
Forced : No
Statistics Tags Issue : mkvmerge v15.0.0 (‘Duel with the Devil’) 64-bit 2017-11-16 01:03:57 / mkvmerge v15.0.0 (‘Duel with the Devil’) 64-bit 2017-11-16 01:03:57 / UTC 2017-11-12T02:13:04Z
FromStats_BitRate : 22244
FromStats_Duration : 01:21:04.985000000
FromStats_FrameCount : 1596
FromStats_StreamSize : 13527232

Menu
00:00:00.000 : :Speedway Day
00:04:00.323 : :Sinister Signs
00:06:42.193 : :Car Carnage
00:11:29.230 : :Credits
00:12:57.652 : :Your Time’s Comin’
00:17:40.351 : :His Own Victim
00:21:32.833 : :Something In The Room
00:23:36.123 : :Salon So Late
00:27:00.494 : :Eye Contact
00:29:12.417 : :Would It Kill You?
00:32:49.176 : :Next To Die
00:35:44.684 : :Not My Turn
00:39:15.019 : :Wet Threats
00:43:37.240 : :Awash At The Wash
00:47:01.068 : :Down The Drain
00:50:05.085 : :Breaking The Chain
00:55:22.486 : :Overflow Below
00:59:46.291 : :Déjà V
01:01:22.888 : :At The Movies
01:05:41.688 : :Bye Bye Suckers
01:08:18.136 : :Deescalated
01:09:55.983 : :Damper On Death
01:13:34.118 : :Death By Caffeine
01:16:35.049 : :End Credits

[/su_spoiler]


| 1fichier | UptoboxDownace | Mega |

Password/Contraseña: peliculasmegahdd.com

Links Intercambiables



Destino Final 5 (2011)

No importa cuánto corras, no importa dónde te escondas, no puedes engañar a la Muerte.En Destino final 5, la Muerte está tan omnipresente como siempre, y se desata cuando la premonición de un hombre salva a un grupo de trabajadores del hundimiento de un puente colgante. Pero no estaba previsto que ninguno de ellos sobreviviera y, en una terrible carrera contra el tiempo, el desdichado grupo se lanza frenéticamente a la búsqueda de una forma de escapar a su siniestro destino.


[su_spoiler title=”Click para Mostrar Capturas” style=”fancy” icon=”caret”][/su_spoiler]


Final Destination 5 (2011)
BRRip 1080p MKV | Resolución: 1920×1080p | Codec: H.264 | Tamaño: 3.7 GB
Idiomas: Latino AC3 5.1 BD – Ingles AC3 5.1 BD
Subtitulos: Latino – Ingles | Terror | 5% Recuperación

[su_spoiler title=”Datos MediaInfo” style=”fancy” icon=”caret”]

General
Complete name : Final Destination 5 (2011) Dual Full 1080p HD.mkv
Format : Matroska
Format version : Version 4 / Version 2
File size : 3.79 GiB
Duration : 1 h 31 min
Overall bit rate : 5 910 kb/s
Movie name : Final Destination 5 (2011) Dual Full 1080p HD
Encoded date : UTC 2017-11-16 01:05:25 / UTC 2017-11-13T01:43:55Z
Writing application : mkvmerge v15.0.0 (‘Duel with the Devil’) 64-bit
Writing library : libebml v1.3.5 + libmatroska v1.4.5 / Lavf57.7.2

Video
ID : 1
Format : AVC
Format/Info : Advanced Video Codec
Format profile : High@L4.1
Format settings, CABAC : Yes
Format settings, RefFrames : 4 frames
Codec ID : V_MPEG4/ISO/AVC
Duration : 1 h 31 min
Bit rate : 3 643 kb/s
Width : 1 920 pixels
Height : 1 080 pixels
Display aspect ratio : 16:9
Frame rate mode : Constant
Frame rate : 23.976 (24000/1001) FPS
Color space : YUV
Chroma subsampling : 4:2:0
Bit depth : 8 bits
Scan type : Progressive
Bits/(Pixel*Frame) : 0.073
Stream size : 2.34 GiB (62%)
Title : Final Destination 5 (2011) Dual Full 1080p HD
Writing library : x264 core 148 r2708 86b7198
Encoding settings : cabac=1 / ref=4 / deblock=1:0:0 / analyse=0x3:0x133 / me=esa / subme=10 / psy=1 / psy_rd=1.00:0.00 / mixed_ref=1 / me_range=24 / chroma_me=1 / trellis=2 / 8x8dct=1 / cqm=0 / deadzone=21,11 / fast_pskip=1 / chroma_qp_offset=-2 / threads=34 / lookahead_threads=5 / sliced_threads=0 / nr=0 / decimate=1 / interlaced=0 / bluray_compat=0 / constrained_intra=0 / bframes=8 / b_pyramid=2 / b_adapt=2 / b_bias=0 / direct=3 / weightb=1 / open_gop=0 / weightp=2 / keyint=240 / keyint_min=24 / scenecut=40 / intra_refresh=0 / rc_lookahead=60 / rc=crf / mbtree=1 / crf=20.0 / qcomp=0.60 / qpmin=0 / qpmax=69 / qpstep=4 / vbv_maxrate=62500 / vbv_bufsize=78125 / crf_max=0.0 / nal_hrd=none / filler=0 / ip_ratio=1.40 / aq=1:1.00
Language : English
Default : Yes
Forced : No
Color range : Limited
Color primaries : BT.709
Transfer characteristics : BT.709
Matrix coefficients : BT.709
Statistics Tags Issue : mkvmerge v15.0.0 (‘Duel with the Devil’) 64-bit 2017-11-16 01:05:25 / mkvmerge v15.0.0 (‘Duel with the Devil’) 64-bit 2017-11-16 01:05:25 / UTC 2017-11-13T01:43:55Z
FromStats_BitRate : 3734116
FromStats_Duration : 01:31:49.880000000
FromStats_FrameCount : 132105
FromStats_StreamSize : 2571816568

Audio #1
ID : 2
Format : AC-3
Format/Info : Audio Coding 3
Format settings, Endianness : Big
Codec ID : A_AC3
Duration : 1 h 31 min
Bit rate mode : Constant
Bit rate : 640 kb/s
Channel(s) : 6 channels
Channel positions : Front: L C R, Side: L R, LFE
Sampling rate : 48.0 kHz
Frame rate : 31.250 FPS (1536 SPF)
Bit depth : 16 bits
Compression mode : Lossy
Stream size : 420 MiB (11%)
Title : Latino
Language : Spanish
Service kind : Complete Main
Default : Yes
Forced : No
Statistics Tags Issue : mkvmerge v15.0.0 (‘Duel with the Devil’) 64-bit 2017-11-16 01:05:25 / mkvmerge v15.0.0 (‘Duel with the Devil’) 64-bit 2017-11-16 01:05:25 / UTC 2017-11-13T01:43:55Z
FromStats_BitRate : 640000
FromStats_Duration : 01:31:50.912000000
FromStats_FrameCount : 172216
FromStats_StreamSize : 440872960

Audio #2
ID : 3
Format : DTS
Format/Info : Digital Theater Systems
Mode : 16
Format settings, Endianness : Big
Codec ID : A_DTS
Duration : 1 h 31 min
Bit rate mode : Constant
Bit rate : 1 509 kb/s
Channel(s) : 6 channels
Channel positions : Front: L C R, Side: L R, LFE
Sampling rate : 48.0 kHz
Frame rate : 93.750 FPS (512 SPF)
Bit depth : 24 bits
Compression mode : Lossy
Stream size : 991 MiB (26%)
Title : Ingles
Language : English
Default : No
Forced : No
Statistics Tags Issue : mkvmerge v15.0.0 (‘Duel with the Devil’) 64-bit 2017-11-16 01:05:25 / mkvmerge v15.0.0 (‘Duel with the Devil’) 64-bit 2017-11-16 01:05:25 / UTC 2017-11-13T01:43:55Z
FromStats_BitRate : 1508999
FromStats_Duration : 01:31:50.891000000
FromStats_FrameCount : 516646
FromStats_StreamSize : 1039491752

Text #1
ID : 4
Format : PGS
Muxing mode : zlib
Codec ID : S_HDMV/PGS
Codec ID/Info : Picture based subtitle format used on BDs/HD-DVDs
Title : Forzados
Language : Spanish
Default : Yes
Forced : No
Statistics Tags Issue : mkvmerge v15.0.0 (‘Duel with the Devil’) 64-bit 2017-11-16 01:05:25 / mkvmerge v15.0.0 (‘Duel with the Devil’) 64-bit 2017-11-16 01:05:25 / UTC 2017-11-13T01:43:55Z
FromStats_BitRate : 1200
FromStats_Duration : 01:26:30.643000000
FromStats_FrameCount : 100
FromStats_StreamSize : 778649

Text #2
ID : 5
Format : PGS
Muxing mode : zlib
Codec ID : S_HDMV/PGS
Codec ID/Info : Picture based subtitle format used on BDs/HD-DVDs
Title : Latino PGS
Language : Spanish
Default : No
Forced : No
Statistics Tags Issue : mkvmerge v15.0.0 (‘Duel with the Devil’) 64-bit 2017-11-16 01:05:25 / mkvmerge v15.0.0 (‘Duel with the Devil’) 64-bit 2017-11-16 01:05:25 / UTC 2017-11-13T01:43:55Z
FromStats_BitRate : 24378
FromStats_Duration : 01:31:07.462000000
FromStats_FrameCount : 2072
FromStats_StreamSize : 16661040

Text #3
ID : 6
Format : PGS
Muxing mode : zlib
Codec ID : S_HDMV/PGS
Codec ID/Info : Picture based subtitle format used on BDs/HD-DVDs
Title : Ingles PGS
Language : English
Default : No
Forced : No
Statistics Tags Issue : mkvmerge v15.0.0 (‘Duel with the Devil’) 64-bit 2017-11-16 01:05:25 / mkvmerge v15.0.0 (‘Duel with the Devil’) 64-bit 2017-11-16 01:05:25 / UTC 2017-11-13T01:43:55Z
FromStats_BitRate : 29649
FromStats_Duration : 01:27:57.480000000
FromStats_FrameCount : 2278
FromStats_StreamSize : 19559371

Menu
00:00:00.000 : :00:00:00.000
00:09:51.341 : :00:09:51.340
00:20:22.763 : :00:20:22.763
00:30:36.543 : :00:30:36.543
00:40:56.996 : :00:40:56.996
00:51:19.076 : :00:51:19.076
01:00:55.777 : :01:00:55.777
01:09:02.847 : :01:09:02.847
01:22:35.576 : :01:22:35.575
01:26:23.303 : :01:26:23.303

[/su_spoiler]


| 1fichier | UptoboxDownace | Mega |

Password/Contraseña: peliculasmegahdd.com

Links Intercambiables

La contraseña para descomprimir los archivos es: peliculasmegahdd.com o pelisxmegahd.com

Calificación de IMDb6,7 195.850 votos

Títulos similares

Saga Saw Completa Full 1080p HD Unrated Latino – Ingles
Colección Películas Viernes 13 Full 1080p HD Español Latino – Ingles
Colección Películas Star Wars Full 1080p HD Español Latino – Ingles
Los comentarios están cerrados.